Search found 1941 matches

by schtruck
Mon Feb 15, 2010 7:06 am
Forum: Game-Specific Help
Topic: Grand Theft Auto 2
Replies: 13
Views: 5535

Re: Grand Theft Auto 2

it seem you forgot to Copy index files too... PocketISO generate 2 files for one game. You have to copy both to the same directory.
by schtruck
Sat Feb 06, 2010 9:37 am
Forum: Game-Specific Help
Topic: Hogs of War
Replies: 3
Views: 2080

Re: Hogs of War

i tried this one, it has much Polygons glitches, but it work well, even in campaign mode.

To avoid polygons glitches just set in gamelist.ini patch=1, and all will be perfect.
by schtruck
Fri Feb 05, 2010 3:30 pm
Forum: Game-Specific Help
Topic: Chrono Cross
Replies: 89
Views: 71862

Re: Chrono Cross

I'm really stupid, this Patch exist in current release already... even in Christmax release.

It's the same as Wu-Tang...

Just set in gamelist.ini Flag0=20.....


And i forgot to say that , if you have much Polygon Bug in somes Games set Patch=1 into Gamelist for those games...
by schtruck
Wed Feb 03, 2010 9:41 pm
Forum: Game-Specific Help
Topic: Chrono Cross
Replies: 89
Views: 71862

Re: Chrono Cross

ok i have added a patch to add in gamelist.ini, it's patch=128. it work now.

For next release...
by schtruck
Wed Feb 03, 2010 12:55 pm
Forum: Game-Specific Help
Topic: Tekken 3
Replies: 33
Views: 23890

Re: Tekken 3

since the last release 02/01/2010, everybody have noticed that tekken3 has lower FPS, but in you look closer you will see that the game is is fact much faster... The proof is here, set into gamelist.ini into your Tekken3 section Patch=112, which is 64+32+16, this apply RootCounter 2 timing Patch for...
by schtruck
Tue Feb 02, 2010 12:51 pm
Forum: Game-Specific Help
Topic: Chrono Cross
Replies: 89
Views: 71862

Re: Chrono Cross

i will investigate on this crash.
by schtruck
Sat Jan 16, 2010 10:14 pm
Forum: Game-Specific Help
Topic: Tomb Raider
Replies: 19
Views: 15030

Re: Tomb Raider

here is a good one, your has no GAP between Audio tracks.... FILE "TOMB_RAIDER2_PAL.BIN" BINARY TRACK 01 MODE2/2352 INDEX 01 00:00:00 TRACK 02 AUDIO PREGAP 00:02:00 INDEX 01 23:06:03 TRACK 03 AUDIO INDEX 00 24:31:36 INDEX 01 24:33:36 TRACK 04 AUDIO INDEX 00 26:27:61 INDEX 01 26:29:61 TRACK...
by schtruck
Sat Jan 16, 2010 6:10 pm
Forum: Game-Specific Help
Topic: Tekken 3
Replies: 33
Views: 23890

Re: Tekken 3

BT Pad serial communication seem to take cpu bandwitdh, i have to verify if i can optimize the code...
by schtruck
Sat Jan 16, 2010 6:06 pm
Forum: Game-Specific Help
Topic: Tomb Raider
Replies: 19
Views: 15030

Re: Tomb Raider

i have curently TR1 and TR2 working perfectly on my HD2 without any special option into fpse.ini....

So there is two solution for your problem, your ISO is bad, just paste here your cue file to verify, or you use badly PocketISO.
by schtruck
Sat Jan 16, 2010 6:31 am
Forum: Game-Specific Help
Topic: Tomb Raider
Replies: 19
Views: 15030

Re: Tomb Raider

you need to set the CD sound volume > 0... because this game check the position within the music played and while setting cdsound to 0 stop Music playing....

if you don't do you won't be able to pass the main menu...

Go to advanced search